Printable Version of Topic

Click here to view this topic in its original format

Metal Area - Extreme Music Portal _ Archive _ Void Ritual - Holodomor [ep] (2014)

Posted by: smysl Sep 17 2023, 12:50:21

https://metalarea.org/images/audiocovers/2023_Sep/acov_tid386318.jpg

*Artist: Void Ritual
*Album: Holodomor [ep]
*Year: 2014
*Genre: Black Metal
*Country: United States
*Format: mp3@CBR320kbps
*Size: 51MB

Tracklist:
1.Cold 06:22
2.Void Ritual 05:13
3.Holodomor 05:03
4.Mourning the Dawn 05:13
******************************
Total playing time: 21:51

https://www.facebook.com/voidritual
https://voidritual.bandcamp.com/album/holodomor

Technical info

Input File: 01 Cold.mp3
Channels : 2
Sample Rate : 44100
Precision : 16-bit
Duration : 00:06:22.67 = 16875571 samples = 28700 CDDA sectors
File Size : 15.6M
Bit Rate : 326k
Sample Encoding: MPEG audio (layer I, II or III)
Comments :
Title=Cold
Artist=Void Ritual
Album=Holodomor
Tracknumber=1/4
Year=2014
Genre=Black Metal



[ Hidden Text ]

Powered by Invision Power Board
© Invision Power Services