Printable Version of Topic

Click here to view this topic in its original format

Metal Area - Extreme Music Portal _ Archive _ Crowdead - Tearing Your Soul Apart (2023)

Posted by: kefka Sep 17 2023, 13:10:52

https://metalarea.org/images/audiocovers/2023_Sep/acov_tid386320.jpg

*Artist: Crowdead
*Album: Tearing Your Soul Apart
*Year: 2023
*Genre: Groove/Death Metal
*Country: Italy
*Format: mp3@CBR320kbps
*Size: 74MB

Tracklist:
01.Tearing Your Soul Apart 04:03
02.Human Deceit 03:17
03.Paralyzed 02:40
04.No Redemption 03:16
05.The Poem of Lies 01:12
06.Everything Ends 03:49
07.Hateful Discussions 03:22
08.Salvation 03:23
09.Territory (feat. Alle Rabitti) 05:14
******************************
Total playing time: 30:16

https://www.youtube.com/watch?v=zybd1r7Yc-k&list=OLAK5uy_mWhPTXopHfbGmBHtEDk6B0BYxv_ljwHcQ

Technical info

Input File: 2.Human Deceit.mp3
Channels : 2
Sample Rate : 44100
Precision : 16-bit
Duration : 00:03:17.24 = 8698196 samples = 14792.9 CDDA sectors
File Size : 8.45M
Bit Rate : 343k
Sample Encoding: MPEG audio (layer I, II or III)
Comments :
Title=Human Deceit
Artist=Crowdead
Album=Tearing Your Soul Apart
Tracknumber=2/9
Year=2023
Discnumber=1/1



[ Hidden Text ]

Powered by Invision Power Board
© Invision Power Services