Printable Version of Topic

Click here to view this topic in its original format

Metal Area - Extreme Music Portal _ Archive _ Desperate Days Of Dying - Nothing, Despair, That's All (2023)

Posted by: Necrokilldozer Sep 17 2023, 17:16:21

https://metalarea.org/images/audiocovers/2023_Sep/acov_tid386335.jpg

*Artist: Desperate Days Of Dying
*Album: Nothing, Despair, That's All
*Year: 2023
*Genre: Sludge/Doom Metal
*Country: Japan
*Format: mp3@CBR320kbps
*Size: 90MB

Tracklist:
1. Invariably Bad Things Happen 04:42
2. After All, Life Is Just This 03:48
3. The Habit of Losing Is Terrible 04:13
4. I Know My Limits 05:02
5. There's No Place for Me 04:54
6. Old Generation Losers 04:12
7. Even Irony Is Heavy on the Gray Life 01:35
8. We'll Never Understand Each Other 05:05
9. I'm Tired of the Setbacks 03:53
******************************
Total playing time: 37:24

https://desperatedaysofdying.bandcamp.com/album/nothing-despair-thats-all

Technical info

Input File: 08. We\'ll Never Understand Each Other.mp3
Channels : 2
Sample Rate : 44100
Precision : 16-bit
Duration : 00:05:05.08 = 13453940 samples = 22880.9 CDDA sectors
File Size : 12.2M
Bit Rate : 320k
Sample Encoding: MPEG audio (layer I, II or III)
Comments :
Title=We'll Never Understand Each Other
Artist=Desperate Days of Dying
Album=Nothing, Despair, That's All
Tracknumber=8
Year=2023
Genre=Sludge | Doom Metal



[ Hidden Text ]

Posted by: vosmidesijatye Sep 18 2023, 11:40:28

Тужащийся задушенный вокал не в кассу, да и музло третьесортное.

Powered by Invision Power Board
© Invision Power Services