Printable Version of Topic

Click here to view this topic in its original format

Metal Area - Extreme Music Portal _ Archive _ Eczema - Visceral 1. La Mala Conformidad (2023)

Posted by: kefka Sep 18 2023, 01:32:44

https://metalarea.org/images/audiocovers/2023_Sep/acov_tid386349.jpg

*Artist: https://metalarea.org/forum/index.php?showtopic=72067
*Album: Visceral 1. La Mala Conformidad
*Year: 2023
*Genre: Progressive/Technical Death Metal
*Country: Spain
*Format: mp3@CBR320kbps
*Size: 65MB

Tracklist:
1.Por la culpa 05:26
2.Deseé tu muerte 05:51
3.Mi gran mal 06:15
4.Dentro miré 04:11
5.Oración 05:19
******************************
Total playing time: 27:02

https://www.youtube.com/watch?v=M4aP8cGsCEI

Technical info

Input File: 4.Dentro miré.mp3
Channels : 2
Sample Rate : 44100
Precision : 16-bit
Duration : 00:04:11.29 = 11081801 samples = 18846.6 CDDA sectors
File Size : 10.7M
Bit Rate : 341k
Sample Encoding: MPEG audio (layer I, II or III)
Comments :
Title=Dentro miré
Artist=Eczema
Album=VISCERAL 1. La mala conformidad
Tracknumber=4/5
Year=2023
Discnumber=1/1



[ Hidden Text ]

Powered by Invision Power Board
© Invision Power Services