Printable Version of Topic

Click here to view this topic in its original format

Metal Area - Extreme Music Portal _ Archive _ Ёndёmical Ёccёntricity - Cringe Metal (2023)

Posted by: kefka Sep 18 2023, 14:52:50

https://metalarea.org/images/audiocovers/2023_Sep/acov_tid386355.jpg

*Artist: Ёndёmical Ёccёntricity
*Album: Cringe Metal
*Year: 2023
*Genre: Death Metal
*Country: Russian Federation
*Format: mp3@CBR320kbps
*Size: 89MB

Tracklist:
1.Помойный погост 03:53
2.Гетто-рандеву с незнакомкой 03:28
3.Страх и ненависть в ПАЗ-3205 03:16
4.Государыня Рыбка [Мисс Анти-Эпидермис] 03:43
5.DP [Dважды Prедавшая] 02:35
6.Зело! Фрагмент №1: Зелофилическая свингер-оргия 02:48
7.Псевдопосредственность 02:52
8.Сплинтерлюдия 01:19
9.sXe-ралли [Антитабака-ссан] 04:12
10.БДСМ-ТТ (Боязнь добросовестно сделать минет трелёвочному трактору) 05:01
11. Трансцендентный психоалконавт 04:17
******************************
Total playing time: 37:24

https://vk.com/4yendyemical

Technical info

Input File: 2.Гетто-рандеву с незнакомкой.mp3
Channels : 2
Sample Rate : 44100
Precision : 16-bit
Duration : 00:03:27.58 = 9154410 samples = 15568.7 CDDA sectors
File Size : 8.63M
Bit Rate : 333k
Sample Encoding: MPEG audio (layer I, II or III)
Comments :
Title=Гетто-рандеву с незнакомкой
Artist=Ёndёmical Ёccёntricity
Album=Cringe Metal
Tracknumber=2/11
Year=2023
Discnumber=1/1



[ Hidden Text ]

Powered by Invision Power Board
© Invision Power Services