Printable Version of Topic

Click here to view this topic in its original format

Metal Area - Extreme Music Portal _ Archive _ Deimos - Aversion For Meekness [compilation] (2023)

Posted by: kefka Sep 19 2023, 04:22:57

https://metalarea.org/images/audiocovers/2023_Sep/acov_tid386374.jpg

*Artist: Deimos
*Album: Aversion For Meekness [compilation]
*Year: 2023
*Genre: Melodic Black/Death Metal
*Country: Mexico
*Format: mp3@CBR320kbps
*Size: 115MB

Tracklist:
1.Wolves of Faith 05:07
2.Forbidden Gosspel 06:02
3.Carnage Religious 04:44
4.Vestiges of an Existence 05:24
5.Jure Grando 05:03
6.Aeternum 01:18
7.The Eternal Promise of the Damned 07:45
8.Malleus Maleficarum 03:43
9.Vatican Serpents 06:33
10.Aversion for Meekness 03:13
******************************
Total playing time: 48:52

https://deimos666.bandcamp.com/album/aversion-for-meekness

Technical info

Input File: 3.Forbidden Gospel.mp3
Channels : 2
Sample Rate : 44100
Precision : 16-bit
Duration : 00:06:00.98 = 15919350 samples = 27073.7 CDDA sectors
File Size : 15.0M
Bit Rate : 332k
Sample Encoding: MPEG audio (layer I, II or III)
Comments :
Title=Forbidden Gospel
Artist=Deimos
Album=Aversion for Meekness
Tracknumber=3/9
Year=2022
Discnumber=1/1



[ Hidden Text ]

Posted by: witchfinder Sep 19 2023, 14:22:55

...Mayhem - De Mysteriis Dom FLACanas

[ Hidden Text ]

Powered by Invision Power Board
© Invision Power Services