Printable Version of Topic

Click here to view this topic in its original format

Metal Area - Extreme Music Portal _ Archive _ Kill Devil Hill - Seas Of Oblivion (2023)

Posted by: Samaritianin Sep 19 2023, 17:43:53

https://metalarea.org/images/audiocovers/2023_Sep/acov_tid386385.jpg

*Artist: Kill Devil Hill
*Album: Seas Of Oblivion
*Year: 2023
*Genre: Heavy Metal
*Country: United States
*Format: mp3@CBR320kbps
*Size: 153MB

Tracklist:
01. Blood In The Water 03:28
02. Before The Devil Knows 03:58
03. Playing With FIre 04:48
04. Undertow 03:28
05. Pharmaceutical Sunshine 04:23
06. Eye Of The Storm 03:49
07. Darkest Days 05:15
08. The Bitter end 05:30
09. Devil and The Deep Blue Sea 03:49
10. Seize The Day 04:52
11. You Can’t Kill Me California 03:15
12. From The Ashes 05:35
13. Stranger Than Fiction 03:50
14. Seas Of Oblivion 05:02
15. Solitude 05:06
******************************
Total playing time: 1:06:08

https://www.facebook.com/KillDevilHillMusic/

Extended info
Mark Zavon Guitars (2011-present)
See also: ex-W.A.S.P., ex-40 Cycle Hum, ex-Die Laughing, ex-Ratt
Jason Bragg Vocals (2011-present)
See also: Day of Errors, Moth, Smoke Hollow, Years of Cold, ex-Pissing Razors
Johnny Kelly Drums (2014-present)
See also: Danzig, Patriarchs in Black, Quiet Riot, Silvertomb, The Alien Blakk, ex-Seventh Void, ex-Type O Negative, EYE AM, ex-A Pale Horse Named Death, ex-Black Label Society, ex-Seven Witches, ex-Black Water Rising, ex-Earl's Court, ex-Pist.On (live)
Matt Snell Bass (2021-present)
See also: ex-Anubis Rising, ex-Dementia, Invidia, ex-Five Finger Death Punch



Technical info

Input File: 07 - Darkest Days.mp3
Channels : 2
Sample Rate : 44100
Precision : 16-bit
Duration : 00:05:14.00 = 13847400 samples = 23550 CDDA sectors
File Size : 12.7M
Bit Rate : 324k
Sample Encoding: MPEG audio (layer I, II or III)
Comments :
Title=Darkest Days
Artist=Kill Devil Hill
Album=Seas Of Oblivion
Tracknumber=7
Year=2023-09-20
Genre=メタル
Discnumber=1



[ Hidden Text ]

Posted by: andreikun Sep 20 2023, 12:51:49

Прошлые альбомы тут хвалили, но я ничего в них не нахожу, кроме попсоватости. Слишком легковесно лично для меня.

Posted by: Terrorizer Sep 20 2023, 13:35:09

Тыкнул в Playing with fire - 5 минут ни о чём ... ну что это за "Игры с огнём" ... вязко, не спеша. :8*

Posted by: vosmidesijatye Sep 20 2023, 13:38:48

ЦИТАТА(Terrorizer @ Sep 20 2023, 15:35:09) *
Playing with fire


Песня с таким названием великолепно исполнена следующим исполнителем -

Ингви Мальмстин

Аж ща врубил как ток вспомнил pray.gif

Posted by: Victim of fate Nov 18 2023, 15:46:52

соуф рок

Powered by Invision Power Board
© Invision Power Services