Printable Version of Topic

Click here to view this topic in its original format

Metal Area - Extreme Music Portal _ Archive _ Paroxysm Unit - Promo 2021 [demo] (2021)

Posted by: Occultas Sep 20 2023, 09:13:40

https://metalarea.org/images/audiocovers/2023_Sep/acov_tid386400.jpg

*Artist: Paroxysm Unit
*Album: Promo 2021 [demo]
*Year: 2021
*Genre: Technical/Brutal Death Metal
*Country: International
*Format: mp3@CBR320kbps
*Size: 15MB

Tracklist:
1. I.K.U. Runner 02:52
2. Data Mess 03:47
******************************
Total playing time: 6:39

https://paroxysmunit.bandcamp.com/album/promo-2021

Extended info
bandcamp


Technical info

Input File: 02 - Data Mess.mp3
Channels : 2
Sample Rate : 44100
Precision : 16-bit
Duration : 00:03:47.36 = 10026400 samples = 17051.7 CDDA sectors
File Size : 9.09M
Bit Rate : 320k
Sample Encoding: MPEG audio (layer I, II or III)



[ Hidden Text ]

Posted by: Metalass Oct 9 2023, 16:34:51

В целом на альбоме оба трэка в таком же виде. Достойное промо для ознакомления.

Powered by Invision Power Board
© Invision Power Services