Printable Version of Topic

Click here to view this topic in its original format

Metal Area - Extreme Music Portal _ Archive _ Shock Wave - Against All Odds (2023)

Posted by: Samaritianin Nov 14 2023, 19:24:36

https://metalarea.org/images/audiocovers/2023_Nov/acov_tid388669.jpg

*Artist: Shock Wave
*Album: Against All Odds
*Year: 2023
*Genre: Thrash Metal
*Country: Spain
*Format: mp3@CBR320kbps
*Size: 90MB

Tracklist:
1. Pyrogenesis
2. Choose The Piercing Word
3. Magnificent Ridicule
4. Dangerously Ignorant
5. Demon Crusher
6. No Years Of Dk
7. Soft Ultraviolence
8. Steamroller Stampede
9. The Call Of Orion
10. Strike Of The Fools
******************************
Total playing time: 35:40

https://www.facebook.com/mallorcathrash/

Extended info
Insekkton Guitars
See also: FireSword, ex-Inferitvm, ex-Crustacean, ex-Virus
Toni Coronado Bass (2021-present)
Edu Turco Vocals (2021-present)
See also: In War, Turkho, ex-Cerosity


Technical info

Input File: 09 - The Call Of Orion.mp3
Channels : 2
Sample Rate : 44100
Precision : 16-bit
Duration : 00:04:12.07 = 11116375 samples = 18905.4 CDDA sectors
File Size : 10.1M
Bit Rate : 320k
Sample Encoding: MPEG audio (layer I, II or III)
Comments :
Title=The Call Of Orion
Artist=Shock Wave
Album=Against All Odds
Tracknumber=9
Year=2023



[ Hidden Text ]

Posted by: Oldskulthrasher Nov 20 2023, 19:44:53

Че за...где барабанщик ? 22.gif

Posted by: mittal Nov 20 2023, 22:25:37

ЦИТАТА(Oldskulthrasher @ 20th November 2023 - 20:44:53) *
Че за...где барабанщик ?

На 0:22

Powered by Invision Power Board
© Invision Power Services