Printable Version of Topic

Click here to view this topic in its original format

Metal Area - Extreme Music Portal _ Archive _ Wretched Kingdom - Wretched Kingdom (2023)

Posted by: Samaritianin Nov 20 2023, 18:50:02

https://metalarea.org/images/audiocovers/2023_Nov/acov_tid388927.jpg

*Artist: Wretched Kingdom
*Album: Wretched Kingdom
*Year: 2023
*Genre: Doom/Heavy Metal/Hard Rock
*Country: United States
*Format: mp3@CBR320kbps
*Size: 63MB

Tracklist:
1. Torn And Frayed 03:42
2. Dreamcrusher 04:31
3. You Can't Save Me 04:54
4. Smoke And Mirrors 04:02
5. Too Close To The Sun 04:30
6. Deviation 06:06
******************************
Total playing time: 27:45

https://wretchedkingdom.bandcamp.com/album/wretched-kingdom
https://www.facebook.com/wretchedkingdom

Extended info
Alfred Gonzales Unknown
Jason C. Unknown
Sylvester L. Unknown
Christopher Boehm Unknown


Technical info

Input File: 05 - Too Close to the Sun.mp3
Channels : 2
Sample Rate : 44100
Precision : 16-bit
Duration : 00:04:28.79 = 11853683 samples = 20159.3 CDDA sectors
File Size : 10.8M
Bit Rate : 320k
Sample Encoding: MPEG audio (layer I, II or III)
Comments :
Title=Too Close to the Sun
Artist=Wretched Kingdom
Album=Wretched Kingdom
Tracknumber=5
Year=2023



[ Hidden Text ]

Powered by Invision Power Board
© Invision Power Services