Printable Version of Topic

Click here to view this topic in its original format

Metal Area - Extreme Music Portal _ Archive _ Satans Grasp - Unholy Forces [ep] (2024)

Posted by: Samaritianin Jan 31 2024, 21:37:30

https://metalarea.org/images/audiocovers/2024_Jan/acov_tid391769.jpg

*Artist: Satans Grasp
*Album: Unholy Forces [ep]
*Year: 2024
*Genre: Black/Thrash Metal
*Country: United States
*Format: mp3@CBR320kbps
*Size: 27MB

Tracklist:
1. Caught in the Eternal Web of Evil
2. Satans Grasp
3. Crusade
4. Unholy Forces
5. Paralysis
6. 7th Realm of Hell
******************************
Total playing time: 11:25

https://satansxgrasp.bandcamp.com/album/unholy-forces

Extended info
Gavynn Bass, Vocals
Jaime Drums
Bagel Guitars
Chris Guitars, Vocals


Technical info

Input File: 05 - Paralysis.mp3
Channels : 2
Sample Rate : 44100
Precision : 16-bit
Duration : 00:03:20.00 = 8820000 samples = 15000 CDDA sectors
File Size : 8.15M
Bit Rate : 326k
Sample Encoding: MPEG audio (layer I, II or III)
Comments :
Title=Paralysis
Artist=SATANS GRASP
Album=Unholy Forces
Tracknumber=5
Year=2024-02-01
Genre=Metal
Discnumber=1



[ Hidden Text ]

Posted by: Genuine Thrashiac Apr 3 2024, 00:01:41

В первой композиции 1. Caught In The Eternal Web of Evil с 01:25 идёт проигрыш из https://metalarea.org/forum/index.php?showtopic=72627&st=180,
причём такой страшной версии я ещё нигде не слышал: как если бы трёноги марсиан из "Войны Миров" затянули бы этот мотив своим утробным звуком. fear.gif

Powered by Invision Power Board
© Invision Power Services