Printable Version of Topic

Click here to view this topic in its original format

Metal Area - Extreme Music Portal _ Archive _ Deicide - Sever The Tongue [single] (2024)

Posted by: Andrew Feb 15 2024, 19:28:48

https://metalarea.org/images/audiocovers/2024_Feb/acov_tid392525.jpg

*Artist: https://metalarea.org/forum/index.php?showtopic=1687
*Album: Sever The Tongue [single]
*Year: 2024
*Genre: Death Metal
*Country: United States
*Format: mp3@CBR320kbps
*Size: 8MB

Tracklist:
1. Sever the Tongue 03:24
******************************
Total playing time: 3:24

https://www.facebook.com/OfficialDeicide/
https://www.youtube.com/watch?v=TnyzumumSFY

Extended info
Glen Benton Bass, Vocals (1989-present)
See also: ex-Amon, ex-Vital Remains
Steve Asheim Drums (1989-present)
See also: Order of Ennead, ex-Council of the Fallen, ex-Amon, ex-The Evil Amidst, ex-Carnage
Kevin Quirion Guitars, Vocals (backing) (2008-2009, 2009-2010, 2011-present)
See also: I, Enclave, Order of Ennead, ex-Council of the Fallen, ex-Shadow Society
Taylor Nordberg Guitars, Vocals (backing) (2022-present)
See also: Dritt Skit, Eye of Purgatory, Goregäng, Infernaeon, Inhuman Condition, Raven Glare, Ribspreader, Scab, The Absence, ex-Smoke & Mirrors, Fore, Umbilicus, ex-Massacre, ex-Wombbath, ex-Gus G. (live), ex-Necromancing the Stone (live), ex-Soilwork (live)


Technical info

Input File: Deicide_-_Sever_The_Tongue.mp3
Channels : 2
Sample Rate : 44100
Precision : 16-bit
Duration : 00:03:24.85 = 9033753 samples = 15363.5 CDDA sectors
File Size : 8.19M
Bit Rate : 320k
Sample Encoding: MPEG audio (layer I, II or III)
Comments :
Title=Sever The Tongue
Artist=Deicide



[ Hidden Text ]

Posted by: asog Feb 15 2024, 20:25:33

Атлищна, альбомчик в апреле, 26 числа

Posted by: 6666666 Feb 16 2024, 12:29:31

Полная хрень.

Posted by: Chasm Feb 16 2024, 12:47:34

Песенка на фоне альбомов после 2008 не плоха.
А по видеоряду Глиняный Батон в этот раз штурмует чарты! crazy.gif

Posted by: RUSP73 Feb 16 2024, 16:40:37

Норм песня, крайний альбом был хорош. Надеюсь продолжат в том же старом ключе

Posted by: DarkHorde Feb 17 2024, 02:54:59

При прослушивании клипа возникает диссонанс. По музыке претензий нет, типичный пенсионерский средне медленный дэт метал, смущает вокал, на лайвах Глен еле-еле из себя выдавливает звуки гроула, или как такой стиль называется? А тут довольно сочно, мясисто.

Posted by: asog Feb 17 2024, 11:57:43

ЦИТАТА(DarkHorde @ Feb 17 2024, 04:54:59) *
А тут довольно сочно, мясисто.

Во время студийной работы можно творить чудеса - из его гроула можно сопрано сделать

Posted by: Chasm Feb 17 2024, 12:13:13

Лайв на то ли лайв. А дядя Глен уже, хоть и поехавший, но старичок. Мощности не те уже.

Posted by: Brutal Feb 17 2024, 12:29:20

клип лютая дичь.

Posted by: DMIYUR Feb 17 2024, 13:06:41

ЦИТАТА(Brutal @ Feb 17 2024, 14:29:20) *
клип лютая дичь.


Согласен . А вот сама песня ничего так , 666%ый Deicide .

Posted by: DarkHorde Feb 18 2024, 03:05:08

ЦИТАТА(asog @ 17th February 2024 - 22:57:43) *
Во время студийной работы можно творить чудеса - из его гроула можно сопрано сделать

Знаю, есть для этого всякие вокальные дисторшены.

Powered by Invision Power Board
© Invision Power Services