Printable Version of Topic

Click here to view this topic in its original format

Metal Area - Extreme Music Portal _ Archive _ Demon Goat - Scathe (2019)

Posted by: Necrokilldozer Jul 13 2019, 16:47:26

http://metalarea.org/images/audiocovers/2019_Jul/acov_tid324384.jpg

*Artist: Demon Goat
*Album: Scathe
*Year: 2019
*Genre: Black/Doom Metal
*Country: United States
*Format: mp3@CBR320kbps
*Size: 113MB

Tracklist:
1. Circadian Decay 07:16
2. Lucifer's Den 08:11
3. Shapeless Entities 08:07
4. Vacant 06:14
5. Lord of Slog 10:03
6. Pointless Ritual, Worthless Soul 07:12
******************************
Total playing time: 47:03

http://demongoat.bandcamp.com/

Technical info

Input File: 01. Circadian Decay.mp3
Channels : 2
Sample Rate : 44100
Precision : 16-bit
Duration : 00:07:17.00 = 19271832 samples = 32775.2 CDDA sectors
File Size : 17.5M
Bit Rate : 320k
Sample Encoding: MPEG audio (layer I, II or III)
Comments :
Title=Circadian Decay
Artist=Demon Goat
Album=Scathe
Tracknumber=1
Year=2019
Genre=Black/Doom Metal



[ Hidden Text ]

Posted by: isvili Jul 14 2019, 11:46:17

В стиль еще и сладж ой как просится. dooo.gif

Posted by: judaz Jul 18 2019, 04:12:21

Великолепно. Второй полноформат за год и опять без потери качества.

Powered by Invision Power Board
© Invision Power Services