Printable Version of Topic

Click here to view this topic in its original format

Metal Area - Extreme Music Portal _ New Releases _ Workshed - Workshed (2019)

Posted by: necroscum Sep 12 2019, 16:18:54

https://metalarea.org/images/audiocovers/2019_Sep/acov_tid327308.jpg

*Artist: Workshed
*Album: Workshed
*Year: 2019
*Genre: Stoner/Doom Metal
*Country: United Kingdom
*Format: mp3@CBR320kbps
*Size: 106MB

Tracklist:
01. The Windowpanes at the Lexington
02. If This is How It Is
03. Nowhere to Go
04. Anthropophobic
05. On Sticks of Wood
06. This City Has Fallen
07. A Spirit in Exile
08. Safety Behaviours
09. It Doesnt Have to Be That Way
******************************
Total playing time: 30:51

https://www.facebook.com/workshedband/

Technical info

Input File: 02. If This is How It Is.mp3
Channels : 2
Sample Rate : 44100
Precision : 16-bit
Duration : 00:04:44.68 = 12554168 samples = 21350.6 CDDA sectors
File Size : 11.5M
Bit Rate : 324k
Sample Encoding: MPEG audio (layer I, II or III)
Comments :
Title=If This is How It Is
Artist=Workshed
Album=Workshed
Tracknumber=2/9
Year=2019
Genre=9
Discnumber=1/1



[ Hidden Text ]

Posted by: AHBAnep Sep 13 2019, 09:31:46

ЦИТАТА
Experimental Doom band featuring ex Cathedral musicians Mark Wharton and Adam Lehan.



27.gif

Posted by: gorven Oct 6 2019, 22:22:20

dead link. possible to post it again ?

Posted by: Tarelka Oct 6 2019, 22:29:16

недурно

Posted by: vosmidesijatye Oct 6 2019, 22:35:05

Слишком быстро, панк какой то местами.

Ну и вокал не оч

Posted by: vosmidesijatye Oct 6 2019, 22:39:26

Конан никогда не нравились.

А че за проект дориана with the dead чтоли?

Posted by: deathic Oct 8 2019, 15:40:10

please, re-upload.

Posted by: Borderline1991 Oct 8 2019, 16:01:34

[ Hidden Text ]

Powered by Invision Power Board
© Invision Power Services