Printable Version of Topic

Click here to view this topic in its original format

Metal Area - Extreme Music Portal _ New Releases _ Sidian - Carry My Bones [ep] (2019)

Posted by: necroscum Sep 12 2019, 16:41:45

https://metalarea.org/images/audiocovers/2019_Sep/acov_tid327312.jpg

*Artist: Sidian
*Album: Carry My Bones [ep]
*Year: 2019
*Genre: Progressive Death Metal
*Country: United States
*Format: mp3@CBR320kbps
*Size: 54MB

Tracklist:
01. Fathers (feat. Taylor Wientjes)
02. Pillars
03. A Delicate Thread (feat. Randy Abbott)
04. Morning Agony
05. The Shallow Grave of Inherent Hate
06. Servility
******************************
Total playing time: 23:29

https://www.facebook.com/SidianMusic/
https://sidianmusic.bandcamp.com/
https://www.youtube.com/watch?v=qFV8GZ37CrU

Technical info

Input File: 02. Pillars.mp3
Channels : 2
Sample Rate : 44100
Precision : 16-bit
Duration : 00:04:15.13 = 11251189 samples = 19134.7 CDDA sectors
File Size : 10.3M
Bit Rate : 322k
Sample Encoding: MPEG audio (layer I, II or III)
Comments :
Title=Pillars
Artist=Sidian
Album=Carry My Bones
Tracknumber=2/6
Year=2019
Genre=9
Discnumber=1/1



[ Hidden Text ]

Powered by Invision Power Board
© Invision Power Services