Printable Version of Topic

Click here to view this topic in its original format

Metal Area - Extreme Music Portal _ Archive _ Seven Spires - Emerald Seas (2020)

Posted by: necroscum Feb 13 2020, 11:59:09

http://metalarea.org/images/audiocovers/2020_Feb/acov_tid333741.jpg

*Artist: Seven Spires
*Album: Emerald Seas
*Year: 2020
*Genre: Symphonic Metal
*Country: United States
*Format: mp3@CBR320kbps
*Size: 112MB

Tracklist:
01. Igne Defendit 01:59
02. Ghost of a Dream 03:41
03. No Words Exchanged 03:28
04. Every Crest 03:57
05. Unmapped Darkness 04:32
06. Succumb 03:54
07. Drowner of Worlds 05:06
08. Silvery Moon 03:10
09. Bury You 03:57
10. Fearless 05:15
11. With Love from the Other Side 01:33
12. The Trouble with Eternal Life 04:39
13. Emerald Seas Overture 03:52
******************************
Total playing time: 49:03

https://www.facebook.com/sevenspiresband
https://www.reverbnation.com/sevenspires
https://www.youtube.com/watch?v=hd5pwSO2bR4&feature=emb_title

Technical info

Input File: 02 - Ghost of a Dream.mp3
Channels : 2
Sample Rate : 44100
Precision : 16-bit
Duration : 00:03:41.95 = 9788039 samples = 16646.3 CDDA sectors
File Size : 8.94M
Bit Rate : 322k
Sample Encoding: MPEG audio (layer I, II or III)
Comments :
Title=Ghost of a Dream
Artist=Seven Spires
Album=Emerald Seas
Tracknumber=2
Year=2020
Genre=Metal
Discnumber=1



[ Hidden Text ]

Posted by: sadmannn Feb 14 2020, 10:07:06

Слабовато..но местами, есть на что обратить внимание

Powered by Invision Power Board
© Invision Power Services