Printable Version of Topic

Click here to view this topic in its original format

Metal Area - Extreme Music Portal _ New Releases _ Syrgjyn - Manifest Of Essence (2010)

Posted by: necroscum Feb 13 2020, 14:54:52

http://metalarea.org/images/audiocovers/2020_Feb/acov_tid333760.jpg

*Artist: Syrgjyn
*Album: Manifest Of Essence
*Year: 2010
*Genre: Death Metal
*Country: Albania
*Format: mp3@CBR320kbps
*Size: 97MB

Tracklist:
01. Prelude to Infinity 03:12
02. An Infinity to Suffer 01:59
03. Oblivion 06:56
04. A Lost Soul and Swallows 05:20
05. Karma Lux (Albageddon) 06:40
06. Djajtë, jo unë... 06:35
07. Manifest of Essence 05:24
08. Xhehenem (Bonus Track) 05:22
******************************
Total playing time: 41:28

https://myspace.com/syrgjyn
https://www.facebook.com/syrgjyn/
https://www.reverbnation.com/syrgjyn
https://soundcloud.com/syrgjyn
https://syrgjyn.bandcamp.com/album/manifest-of-essence-20th-anniversary-remaster
https://www.youtube.com/watch?v=LsFzmOYCnS8

Technical info

Input File: 02 - An Infinity to Suffer.mp3
Channels : 2
Sample Rate : 44100
Precision : 16-bit
Duration : 00:01:59.08 = 5251208 samples = 8930.63 CDDA sectors
File Size : 5.05M
Bit Rate : 340k
Sample Encoding: MPEG audio (layer I, II or III)
Comments :
Title=An Infinity to Suffer
Artist=Syrgjyn
Album=Manifest of Essence
Tracknumber=2
Year=2010-06-12
Genre=Rock; Metal
Discnumber=1



[ Hidden Text ]

Powered by Invision Power Board
© Invision Power Services