Printable Version of Topic

Click here to view this topic in its original format

Metal Area - Extreme Music Portal _ New Releases _ Frayle - Dead Inside [ep] (2019)

Posted by: necroscum Feb 13 2020, 15:20:48

http://metalarea.org/images/audiocovers/2020_Feb/acov_tid333761.jpg

*Artist: Frayle
*Album: Dead Inside [ep]
*Year: 2019
*Genre: Doom/Post-Metal
*Country: United States
*Format: mp3@CBR320kbps
*Size: 20MB

Tracklist:
01. Dead Inside 04:32
02. Godless 04:29
******************************
Total playing time: 9:01

https://www.facebook.com/frayleband
https://frayle.bandcamp.com/album/dead-inside
https://www.youtube.com/watch?v=_MtiSwjzl-4

Technical info

Input File: 02. Godless.mp3
Channels : 2
Sample Rate : 44100
Precision : 16-bit
Duration : 00:04:29.71 = 11894035 samples = 20228 CDDA sectors
File Size : 10.8M
Bit Rate : 321k
Sample Encoding: MPEG audio (layer I, II or III)
Comments :
Title=Godless
Artist=Frayle
Album=Dead Inside
Tracknumber=02
Year=2019
Genre=Metal
Discnumber=1



[ Hidden Text ]

Powered by Invision Power Board
© Invision Power Services