Printable Version of Topic

Click here to view this topic in its original format

Metal Area - Extreme Music Portal _ New Releases _ Frayle - The White Witch [ep] (2018)

Posted by: necroscum Feb 13 2020, 15:37:50

http://metalarea.org/images/audiocovers/2020_Feb/acov_tid333762.jpg

*Artist: Frayle
*Album: The White Witch [ep]
*Year: 2018
*Genre: Doom/Post-Metal
*Country: United States
*Format: mp3@CBR320kbps
*Size: 44MB

Tracklist:
01. Let the Darkness In 04:38
02. The White Witch 05:25
03. Wandering Star (Portishead cover) 03:58
04. Things That Make Us Bleed 05:34
******************************
Total playing time: 19:35

https://www.facebook.com/frayleband
https://frayle.bandcamp.com/album/the-white-witch-ep
https://www.youtube.com/watch?v=NdtSNY8T8KY

Technical info

Input File: 02. The White Witch.mp3
Channels : 2
Sample Rate : 44100
Precision : 16-bit
Duration : 00:05:25.17 = 14339865 samples = 24387.5 CDDA sectors
File Size : 13.0M
Bit Rate : 320k
Sample Encoding: MPEG audio (layer I, II or III)
Comments :
Title=The White Witch
Artist=Frayle
Album=The White Witch EP
Tracknumber=2
Year=2018
Genre=Rock



[ Hidden Text ]

Powered by Invision Power Board
© Invision Power Services