Printable Version of Topic

Click here to view this topic in its original format

Metal Area - Extreme Music Portal _ New Releases _ Kneel - Infinite Worship, Slaves Eternal [ep] (2020)

Posted by: Daale Feb 13 2020, 16:14:15

https://metalarea.org/images/audiocovers/2020_Feb/acov_tid333764.png

*Artist: Kneel
*Album: Infinite Worship, Slaves Eternal [ep]
*Year: 2020
*Genre: Black Metal
*Country: United States
*Format: mp3@CBR320kbps
*Size: 48MB

Tracklist:
01. Infinite Worship, Slaves Eternal 07:50
02. Breaking Knees Devotion 05:28
03. Clasped Hands a Molten Spire 05:11
******************************
Total playing time: 18:29

https://vexationsrecords.bandcamp.com/album/infinite-worship-slaves-eternal

Extended info
Personal purchase


Technical info

Input File: KNEEL - Infinite Worship, Slaves Eternal - 02 Breaking Knees Devotion.mp3
Channels : 2
Sample Rate : 44100
Precision : 16-bit
Duration : 00:05:28.64 = 14492936 samples = 24647.9 CDDA sectors
File Size : 13.3M
Bit Rate : 323k
Sample Encoding: MPEG audio (layer I, II or III)
Comments :
Title=Breaking Knees Devotion
Artist=KNEEL
Album=Infinite Worship, Slaves Eternal
Tracknumber=2
Year=2020



[ Hidden Text ]

Posted by: garmonbozia Feb 23 2020, 09:41:17

охрененно.
разрушение в духе Katharsis с выворачивающими детовыми диссонансами под расколбас а ля Darkthrone
Spirit Possession - вообще пушка!

Posted by: rimfrost Feb 23 2020, 11:03:31

Перезалейте на другие обменники плиз !

Posted by: garmonbozia Feb 23 2020, 11:17:13

[ Hidden Text ]

Powered by Invision Power Board
© Invision Power Services