Printable Version of Topic

Click here to view this topic in its original format

Metal Area - Extreme Music Portal _ New Releases _ Gaia & Drukner - Gaia/Drukner [split] (2019)

Posted by: Evgundel Feb 13 2020, 16:19:12

http://metalarea.org/images/audiocovers/2020_Feb/acov_tid333766.jpg

*Artist: Gaia & Drukner
*Album: Gaia/Drukner [split]
*Year: 2019
*Genre: Stoner/Doom Metal | Stoner/Doom Metal
*Country: Denmark | Denmark
*Format: mp3@CBR320kbps
*Size: 93MB

Tracklist:
Gaia:
1. Earthbound 13:34
2. Out Of The Well 08:23
Drukner:
3. Discordia I 05:46
4. Olmen 02:36
5. Discordia II 10:04
******************************
Total playing time: 40:24

http://www.facebook.com/Gaiadoom
http://www.facebook.com/druknerdoom
http://virkelighedsfjern.bandcamp.com/album/vir030-split

Extended info
Released in collaboration with: AUSI Records, Svensk Psych Aften, Vinyltrolden and Virkelighedsfjern.

Gaia line-up:
Mark B Jensen - drums (Måneskjold, Solens Folk)
Morten Bastkjær Christensen - bass (God Dam, Gråsind, Katla [Dnk], Måneskjold, Solens Folk)
Kriller Andersen - guitar, vocals (By Uden Himmel, God Dam, Katla [Dnk], Lucid Grave, Måneskjold, Naturale [Dnk], Rocket Gravy, Solens Folk)

Drukner line-up:
Theodor Reumert - drums
Mikkel Rishøj - guitar, soundscapes
Kåre Lindberg - bass
Palle Skovhede - guitar, vocals


Technical info

Input File: 02 Gaia - Out of the Well.mp3
Channels : 2
Sample Rate : 44100
Precision : 16-bit
Duration : 00:08:23.38 = 22199102 samples = 37753.6 CDDA sectors
File Size : 20.2M
Bit Rate : 321k
Sample Encoding: MPEG audio (layer I, II or III)
Comments :
Title=Out of the Well
Artist=Gaia
Album=Gaia / Drukner - Split
Tracknumber=2
Year=2019
Genre=Stoner/Doom Metal



[ Hidden Text ]

Powered by Invision Power Board
© Invision Power Services