Printable Version of Topic

Click here to view this topic in its original format

Metal Area - Extreme Music Portal _ New Releases _ Morana - Prazna Trpeza Moje Pustoline [ep] (2019)

Posted by: Necrokilldozer Feb 13 2020, 19:12:45

http://metalarea.org/images/audiocovers/2020_Feb/acov_tid333772.jpg

*Artist: Morana
*Album: Prazna Trpeza Moje Pustoline [ep]
*Year: 2019
*Genre: Pagan/Melodic Black Metal
*Country: Montenegro
*Format: mp3@CBR320kbps
*Size: 50MB

Tracklist:
1.Goro Crna 02:28
2.Svarga 04:02
3.Močvara 05:07
4.Pustolina 06:42
5.Outro 02:10
******************************
Total playing time: 20:29

https://navrecords.bandcamp.com/album/morana-prazna-trpeza-moje-pustoline

Extended info
FLAC RIP

Line - up:

Nemanja Grbović - Unknown


Technical info

Input File: 03. Močvara.mp3
Channels : 2
Sample Rate : 44100
Precision : 16-bit
Duration : 00:05:07.40 = 13556472 samples = 23055.2 CDDA sectors
File Size : 12.3M
Bit Rate : 320k
Sample Encoding: MPEG audio (layer I, II or III)
Comments :
Title=Mocvara
Artist=Morana
Album=Prazna Trpeza Moje Pustoline (EP)
Tracknumber=3
Year=2019
Genre=Pagan/Melodic Black Metal



[ Hidden Text ]

Powered by Invision Power Board
© Invision Power Services