Printable Version of Topic

Click here to view this topic in its original format

Metal Area - Extreme Music Portal _ New Releases _ Dangerous Project - Cosmic Vision (2020)

Posted by: VLADISLAV_V_K Feb 13 2020, 20:50:02

http://metalarea.org/images/audiocovers/2020_Feb/acov_tid333776.jpg

*Artist: Dangerous Project
*Album: Cosmic Vision
*Year: 2020
*Genre: Neo-Classical Power Metal
*Country: Peru
*Format: mp3@CBR320kbps
*Size: 108MB

Tracklist:
01. Evil Strike
02. Hide in the Shadows
03. Burning Angel
04. Cosmic Vision
05. Keeper of the Sun
06. The Fire in My Heart
07. She Doesn’t Believe in Love
08. Never Surrender
09. Into the Eternity
10. Point of No Return
11. Guardian del Sol (Bonus Track)
12. El Fuego En Mi Corazón (Bonus Track)
******************************
Total playing time: 47:02

https://music.yandex.ru/album/9910094

Extended info
Lineup:
Jose Gaona - Vocals
Oscar J. Martin - Guitars
Eddy Geott - Bass
Luber Elend - Keyboards
Miguel Franco - Drums


Technical info

Input File: 02-Hide in the Shadows.mp3
Channels : 2
Sample Rate : 44100
Precision : 16-bit
Duration : 00:04:26.94 = 11771922 samples = 20020.3 CDDA sectors
File Size : 10.7M
Bit Rate : 320k
Sample Encoding: MPEG audio (layer I, II or III)
Comments :
Title=Hide in the Shadows
Artist=Dangerous Project
Album=Cosmic Vision
Tracknumber=2/12
Year=2020
Genre=Neo-Classical Power Metal



[ Hidden Text ]

Posted by: sadmannn Feb 14 2020, 09:59:38

Банальщина, сотни раз и покруче сыгранная другими группами

Posted by: Olrak Feb 14 2020, 10:07:11

https://www.youtube.com/results?search_query=Dangerous+Project+-+Cosmic+Vision+

Posted by: zauber1 Feb 28 2020, 15:56:53

Любовь к клавесину в превью напомнила российский проект Орион, у которого, кстати, должен скоро выйти новый альбом.

Powered by Invision Power Board
© Invision Power Services