Printable Version of Topic

Click here to view this topic in its original format

Metal Area - Extreme Music Portal _ Archive _ Immorgon - As Shadows Fall (2020)

Posted by: Samaritianin Feb 14 2020, 06:33:50

http://metalarea.org/images/audiocovers/2020_Feb/acov_tid333782.jpg

*Artist: Immorgon
*Album: As Shadows Fall
*Year: 2020
*Genre: Melodic Death/Viking Metal
*Country: Spain
*Format: mp3@CBR320kbps
*Size: 117MB

Tracklist:
1. Pale Beams of Light 06:53
2. The Last Heights 05:13
3. Ocells de foc 04:31
4. The Raven 05:07
5. The Bloodthirster 06:12
6. The Fall 05:10
7. Walk Among the Forest 03:59
8. Chants of War 05:46
9. Per mon escut no hi ha flors 03:38
10. Written in Snow 04:19
******************************
Total playing time: 50:48

https://immorgon.bandcamp.com/album/as-shadows-fall
https://www.facebook.com/ImmorgonGrup

Extended info
Steavy Gamester Drums (2012-2013, 2015-present)
See also: Khaos Origin, Vad, Worth
Axel Jordana Guitars, Vocals (backing) (2012-present)
Charlie Trinkhorn Vocals (lead), Guitars (2012-present)
Joan de Ros Bass (2014-present)
See also: Vad



Technical info

Input File: 05. The Bloodthirster.mp3
Channels : 2
Sample Rate : 44100
Precision : 16-bit
Duration : 00:06:12.19 = 16413579 samples = 27914.2 CDDA sectors
File Size : 15.0M
Bit Rate : 323k
Sample Encoding: MPEG audio (layer I, II or III)
Comments :
Title=The Bloodthirster
Artist=Immorgon
Album=As Shadows Fall
Tracknumber=5
Year=2020-02-13
Discnumber=1



[ Hidden Text ]

Posted by: Glioma Feb 15 2020, 07:58:17

Вроде не плохие гишпанцы, соплей нет, мелодика и мощь есть.

Posted by: DenisKov Feb 17 2020, 02:31:34

Третьесорт, на раз послушать можно.

Posted by: isvili Feb 17 2020, 17:07:43

ЦИТАТА(DenisKov @ Feb 17 2020, 03:31:34) *
Третьесорт, на раз послушать можно.

А вот и нет bye.gif

Posted by: Aectan Feb 18 2020, 14:30:37

Скучная невыразительная музыка. Действительно на один раз.

Powered by Invision Power Board
© Invision Power Services