Printable Version of Topic

Click here to view this topic in its original format

Metal Area - Extreme Music Portal _ New Releases _ The Massacre Cave - Godlust (2020)

Posted by: Samaritianin Feb 14 2020, 06:45:48

http://metalarea.org/images/audiocovers/2020_Feb/acov_tid333783.jpg

*Artist: The Massacre Cave
*Album: Godlust
*Year: 2020
*Genre: Progressive Heavy/Thrash Metal
*Country: United Kingdom
*Format: mp3@CBR320kbps
*Size: 94MB

Tracklist:
1. We Own the Sun 04:42
2. From the Mountains 05:58
3. An Itchy Finger 03:43
4. Tetramethrin 06:32
5. Godfrey 02:05
6. Fighting Giants 05:35
7. Red Death 02:57
8. Godlust 08:46
******************************
Total playing time: 40:18

https://themassacrecave.bandcamp.com/album/godlust
https://www.facebook.com/themassacrecave/

Extended info
Joe Cormack - Vocals/Guitar
Ben Cormack -Vocals/Guitar
Jodie Bremaneson - Bass
Pete Colquhoun - Drums


Technical info

Input File: 04 - Tetramethrin.mp3
Channels : 2
Sample Rate : 44100
Precision : 16-bit
Duration : 00:06:33.01 = 17331785 samples = 29475.8 CDDA sectors
File Size : 15.9M
Bit Rate : 324k
Sample Encoding: MPEG audio (layer I, II or III)
Comments :
Title=Tetramethrin
Artist=The Massacre Cave
Album=Godlust
Tracknumber=4
Year=2020



[ Hidden Text ]

Powered by Invision Power Board
© Invision Power Services