Printable Version of Topic

Click here to view this topic in its original format

Metal Area - Extreme Music Portal _ New Releases _ Psykotribe - The Devil's Complex (2020)

Posted by: Samaritianin Feb 14 2020, 07:02:58

http://metalarea.org/images/audiocovers/2020_Feb/acov_tid333784.jpg

*Artist: Psykotribe
*Album: The Devil's Complex
*Year: 2020
*Genre: Modern Death/Thrash Metal
*Country: United States
*Format: mp3@CBR320kbps
*Size: 94MB

Tracklist:
01. Live eviL
02. Lord of Death
03. Faceless Killers
04. Devil’s Complex
05. Left Behind
06. Take Control
07. End It
08. Vengeance
09. Wicked White Lies
10. River of Knives
******************************
Total playing time: 40:52

https://www.facebook.com/PSYKOTRIBE.BAND/

Extended info
Dana Darkly ~ Vocals
Jakob Sin ~ Vocals
Chris Lewis ~ Lead Guitar
John Williams ~ Lead Guitar
Jamez Madness ~ Rhythm Guitar
Chad Zielesch ~ Bass
Adam Zielesch ~ Drums


Technical info

Input File: 02. Lord of Death.mp3
Channels : 2
Sample Rate : 44100
Precision : 16-bit
Duration : 00:04:58.21 = 13150929 samples = 22365.5 CDDA sectors
File Size : 12.0M
Bit Rate : 322k
Sample Encoding: MPEG audio (layer I, II or III)
Comments :
Title=Lord of Death
Artist=Psykotribe
Album=The Devil's Complex
Tracknumber=2
Year=2020
Discnumber=1



[ Hidden Text ]

Posted by: DenisKov Feb 17 2020, 11:21:05

Третьесорт.

Posted by: Aectan Feb 17 2020, 14:16:23

Да, скучный весьма альбом.

Powered by Invision Power Board
© Invision Power Services