Printable Version of Topic

Click here to view this topic in its original format

Metal Area - Extreme Music Portal _ Archive _ Beast Within The Sound - ... And Vice Versa (2018)

Posted by: Gelukas Feb 14 2020, 07:44:51

https://metalarea.org/images/audiocovers/2020_Feb/acov_tid333786.jpg

*Artist: Beast Within The Sound
*Album: ... And Vice Versa
*Year: 2018
*Genre: Groove Metal/Metalcore
*Country: Czech Republic
*Format: mp3@CBR192kbps
*Size: 71MB

Tracklist:
1. Cisplatin
2. ... and Vice Versa
3. The Ordeal
4. Esprit de Corps
5. 52116
6. ScapeGoat
7. Metal Is Texas
8. About the Truth and Love
9. Pros'n'Cons
10. Behind the Gravestones
11. If I Were Me
12. Winter Gates
13. The Beacon
******************************
Total playing time: 51:53

http://bandzone.cz/bwts
https://www.facebook.com/beastwithinthesound

Technical info

Input File: 02 ...And Vice Versa.mp3
Channels : 2
Sample Rate : 44100
Precision : 16-bit
Duration : 00:04:45.36 = 12584420 samples = 21402.1 CDDA sectors
File Size : 6.84M
Bit Rate : 192k
Sample Encoding: MPEG audio (layer I, II or III)
Comments :
Artist=Beast Within The Sound
Album=...And Vice Versa
Year=2018
Genre=Metal



[ Hidden Text ]

Powered by Invision Power Board
© Invision Power Services