Printable Version of Topic

Click here to view this topic in its original format

Metal Area - Extreme Music Portal _ New Releases _ Psychopath - Teratogenesis (2020)

Posted by: Samaritianin Feb 14 2020, 09:24:33

http://metalarea.org/images/audiocovers/2020_Feb/acov_tid333787.jpg

*Artist: Psychopath
*Album: Teratogenesis
*Year: 2020
*Genre: Blackened Thrash/Speed Metal
*Country: Malta
*Format: mp3@CBR320kbps
*Size: 78MB

Tracklist:
01. Awakening 01:13
02. Psychopath 03:41
03. Warganisation 04:03
04. The Vile Invention of Christianity 03:21
05. Teratogenesis 03:57
06. The Purpose of the Pit 03:30
07. Chaos Metal 03:28
08. Living Evil 04:37
09. Tsar Bomba 04:11
10. Reaper 02:39
******************************
Total playing time: 34:40

https://psychopath666.bandcamp.com/
https://www.facebook.com/psychopathchaos/

Technical info

Input File: 03 - Warganisation.mp3
Channels : 2
Sample Rate : 44100
Precision : 16-bit
Duration : 00:04:03.60 = 10742760 samples = 18270 CDDA sectors
File Size : 9.75M
Bit Rate : 320k
Sample Encoding: MPEG audio (layer I, II or III)
Comments :
Title=Warganisation
Artist=Psychopath
Album=Teratogenesis
Tracknumber=3
Year=2020
Genre=Metal



[ Hidden Text ]

Posted by: AHBAnep Feb 14 2020, 14:07:31



Хорошо жужжит парень 20.gif

Powered by Invision Power Board
© Invision Power Services