Printable Version of Topic

Click here to view this topic in its original format

Metal Area - Extreme Music Portal _ New Releases _ Oracle - Selah (1992)

Posted by: Proteus_666 Feb 14 2020, 11:21:41

http://metalarea.org/images/audiocovers/2020_Feb/acov_tid333794.jpg

*Artist: Oracle
*Album: Selah
*Year: 1992
*Genre: Heavy Metal
*Country: United States
*Format: mp3@CBR320kbps
*Size: 70MB

Tracklist:
1. Passage Denied 05:32
2. Harlots Destiny 04:27
3. Witches And Warlocks 06:04
4. The Purging Fire 03:52
5. Desolate Kings 03:17
6. Legion 06:53
7. Rebecca (Instrumental) 01:42
******************************
Total playing time: 31:47

https://myspace.com/oracleusa

Extended info
Band from Greensboro, North Carolina.


Technical info

Input File: 01-Passage Denied.mp3
Channels : 2
Sample Rate : 44100
Precision : 16-bit
Duration : 00:05:32.90 = 14680846 samples = 24967.4 CDDA sectors
File Size : 13.3M
Bit Rate : 320k
Sample Encoding: MPEG audio (layer I, II or III)
Comments :
Title=Passage Denied
Artist=Oracle
Album=Selah
Tracknumber=1
Year=1992
Genre=Heavy Metal



[ Hidden Text ]

Posted by: AHBAnep Feb 14 2020, 13:57:07



Хороший хэви.
Но лучше уж сразу - http://metalarea.org/forum/index.php?showtopic=114297&hl=Oracle

Posted by: Foneg Feb 14 2020, 16:40:43

ЦИТАТА(AHBAnep @ Feb 14 2020, 15:57:07) *


Хороший хэви.
Но лучше уж сразу - http://metalarea.org/forum/index.php?showtopic=114297&hl=Oracle


Музло найс но вокал раздражает местами

Posted by: henknegatief Feb 16 2020, 10:41:50

Thank you, classic!

Powered by Invision Power Board
© Invision Power Services