Printable Version of Topic

Click here to view this topic in its original format

Metal Area - Extreme Music Portal _ New Releases _ Bloodlad - Somewhere Deep Inside The Dark [demo] (2016)

Posted by: Gelukas Feb 14 2020, 13:02:24

https://metalarea.org/images/audiocovers/2020_Feb/acov_tid333797.jpg

*Artist: Bloodlad
*Album: Somewhere Deep Inside The Dark [demo]
*Year: 2016
*Genre: Progressive Melodic Death Metal
*Country: Indonesia
*Format: mp3@CBR320kbps
*Size: 51MB

Tracklist:
1. Tomino's Hell 06:18
2. Ascension 08:27
3. Dark Entries 07:18
******************************
Total playing time: 22:03

https://bloodlad.bandcamp.com/
https://www.facebook.com/bloodladband

Technical info

Input File: 02. Ascension.mp3
Channels : 2
Sample Rate : 44100
Precision : 16-bit
Duration : 00:08:26.84 = 22351600 samples = 38012.9 CDDA sectors
File Size : 20.6M
Bit Rate : 325k
Sample Encoding: MPEG audio (layer I, II or III)
Comments :
Title=Ascension
Artist=Bloodlad
Album=Somewhere Deep Inside the Dark
Tracknumber=02.
Year=2016
Genre=Metal



[ Hidden Text ]

Powered by Invision Power Board
© Invision Power Services