Printable Version of Topic

Click here to view this topic in its original format

Metal Area - Extreme Music Portal _ New Releases _ Depressive Reality - Alone In The Dark World [demo] (1996)

Posted by: Gelukas Feb 14 2020, 14:02:10



*Artist: Depressive Reality
*Album: Alone In The Dark World [demo]
*Year: 1996
*Genre: Death/Black Metal
*Country: Czech Republic
*Format: mp3@CBR320kbps
*Size: 45MB

Tracklist:
1. Intro/The Loneliness 05:56
2. Poison in Blood 03:57
3. Depressive Reality 03:07 (instrumental)
4. Devil in Priest Gown/Ticket to Hell 06:55
******************************
Total playing time: 19:55

http://bandzone.cz/depressivereality
https://myspace.com/depressivereality

Technical info

Input File: 02 Poison in Blood.mp3
Channels : 2
Sample Rate : 44100
Precision : 16-bit
Duration : 00:03:54.68 = 10349388 samples = 17601 CDDA sectors
File Size : 9.38M
Bit Rate : 320k
Sample Encoding: MPEG audio (layer I, II or III)
Comments :
Artist=Depressive Reality
Album=Alone in the Dark World
Tracknumber=2
Year=1996
Genre=9



[ Hidden Text ]

Powered by Invision Power Board
© Invision Power Services