Printable Version of Topic

Click here to view this topic in its original format

Metal Area - Extreme Music Portal _ New Releases _ Bhereg - Arcane Doctrine [demo] (2012)

Posted by: Абигор Feb 14 2020, 20:19:14

http://metalarea.org/images/audiocovers/2020_Feb/acov_tid333814.jpg

*Artist: Bhereg
*Album: Arcane Doctrine [demo]
*Year: 2012
*Genre: Black Metal
*Country: United States
*Format: mp3@CBR320kbps
*Size: 34MB

Tracklist:
1. Mystery Initiation 03:50
2. Arcane Doctrine 03:35
3. Noumena 04:46
4. In Satanic Nature 02:27
******************************
Total playing time: 14:38

https://bhereg.bandcamp.com/album/arcane-doctrine

Extended info
Было в лоу.


Technical info

Input File: 02 Arcane Doctrine.mp3
Channels : 2
Sample Rate : 44100
Precision : 16-bit
Duration : 00:03:35.21 = 9490673 samples = 16140.6 CDDA sectors
File Size : 8.62M
Bit Rate : 320k
Sample Encoding: MPEG audio (layer I, II or III)
Comments :
Title=Arcane Doctrine
Artist=Bhereg
Album=Arcane Doctrine
Tracknumber=02/4
Year=2012



[ Hidden Text ]

Powered by Invision Power Board
© Invision Power Services