Printable Version of Topic

Click here to view this topic in its original format

Metal Area - Extreme Music Portal _ New Releases _ Shadow Witch - Under The Shadow Of A Witch (2020)

Posted by: VLADISLAV_V_K Feb 14 2020, 20:44:38

http://metalarea.org/images/audiocovers/2020_Feb/acov_tid333816.jpg

*Artist: Shadow Witch
*Album: Under The Shadow Of A Witch
*Year: 2020
*Genre: Psychedelic Stoner Metal
*Country: United States
*Format: mp3@CBR320kbps
*Size: 93MB

Tracklist:
01. Spearfinger 03:00
02. Demon's Hook 04:02
03. Wolf Among the Sheep 04:59
04. Witches of Aendor 04:18
05. Shifter 03:34
06. Saint Magdalene 04:31
07. 6 x 6 03:54
08. Sour 03:51
09. Fountain 08:11
******************************
Total playing time: 40:20

https://shadowwitch.bandcamp.com/
https://music.yandex.ru/album/9802102

Extended info


Linneup:
David Pannullo Bass, Vocals
Doug Beans Drums
Jeremy Hall Guitar
Earl Lundy Lead Vocals, Mellotron, Loops


Technical info

Input File: 02-Demon\'s Hook.mp3
Channels : 2
Sample Rate : 44100
Precision : 16-bit
Duration : 00:04:02.33 = 10686665 samples = 18174.6 CDDA sectors
File Size : 9.69M
Bit Rate : 320k
Sample Encoding: MPEG audio (layer I, II or III)
Comments :
Title=Demon's Hook
Artist=Shadow Witch
Album=Under the Shadow of a Witch
Tracknumber=2
Year=2020-02-14
Genre=Stoner Metal



[ Hidden Text ]

Powered by Invision Power Board
© Invision Power Services