Printable Version of Topic

Click here to view this topic in its original format

Metal Area - Extreme Music Portal _ New Releases _ Dirkschneider & The Old Gang - Where The Angels Fly [single] (2021)

Posted by: kostja Apr 6 2021, 12:42:31

http://metalarea.org/images/audiocovers/2021_Apr/acov_tid349337.jpg

*Artist: Dirkschneider & The Old Gang
*Album: Where The Angels Fly [single]
*Year: 2021
*Genre: Heavy Metal
*Country: Germany
*Format: mp3@CBR320kbps
*Size: 11MB

Tracklist:
1. Where the Angels Fly 4:57
******************************
Total playing time: 4:57

Extended info


Technical info

Input File: 01 Where the Angels Fly.mp3
Channels : 2
Sample Rate : 48000
Precision : 16-bit
Duration : 00:04:57.24 = 14267664 samples ~ 22293.2 CDDA sectors
File Size : 11.9M
Bit Rate : 321k
Sample Encoding: MPEG audio (layer I, II or III)
Comments :
Title=Where the Angels Fly
Artist=Dirkschneider & The Old Gang
Album=Where the Angels Fly - Single
Tracknumber=1
Year=2021
Genre=Heavy Metal



[ Hidden Text ]

Powered by Invision Power Board
© Invision Power Services