Printable Version of Topic

Click here to view this topic in its original format

Metal Area - Extreme Music Portal _ New Releases _ Sacred Death - Sacred Death [demo] (2021)

Posted by: smysl Apr 6 2021, 13:49:58

https://metalarea.org/images/audiocovers/2021_Apr/acov_tid349340.jpg

*Artist: Sacred Death
*Album: Sacred Death [demo]
*Year: 2021
*Genre: Black Metal
*Country: United States
*Format: mp3@CBR320kbps
*Size: 24MB

Tracklist:
1.Unholy Onslaught (ft. Mörder) 03:45
2.The Bitter Taste of Mortality 02:43
3.Condemned to Eternal Suffering 04:02
******************************
Total playing time: 10:30

https://deatheternalva.bandcamp.com/album/sacred-death

Technical info

Input File: 01 Unholy Onslaught (ft. Mörder).mp3
Channels : 2
Sample Rate : 44100
Precision : 16-bit
Duration : 00:03:45.95 = 9964307 samples = 16946.1 CDDA sectors
File Size : 9.07M
Bit Rate : 321k
Sample Encoding: MPEG audio (layer I, II or III)
Comments :
Title=Unholy Onslaught (ft. Mörder)
Artist=Sacred Death
Album=Sacred Death
Tracknumber=1
Year=2021
Genre=Black Metal



[ Hidden Text ]

Powered by Invision Power Board
© Invision Power Services