Printable Version of Topic

Click here to view this topic in its original format

Metal Area - Extreme Music Portal _ New Releases _ Halo Of Miasma - Triumphant Afterglow [ep] (2021)

Posted by: smysl Apr 6 2021, 14:01:38

https://metalarea.org/images/audiocovers/2021_Apr/acov_tid349341.jpg

*Artist: Halo Of Miasma
*Album: Triumphant Afterglow [ep]
*Year: 2021
*Genre: Black Metal
*Country: Poland
*Format: mp3@CBR320kbps
*Size: 50MB

Tracklist:
1.Frigg's Funeral Pyre 01:17
2.Triumphant Afterglow 05:33
3.Psychedelic Midwinter 06:09
4.Love And Terror Cult 03:26
5.Wyrd Reconstruction 01:49
6.Häxan 03:23
******************************
Total playing time: 21:37

https://haloofmiasma.bandcamp.com

Technical info

Input File: 02 Triumphant Afterglow.mp3
Channels : 2
Sample Rate : 44100
Precision : 16-bit
Duration : 00:05:33.08 = 14688916 samples = 24981.1 CDDA sectors
File Size : 13.4M
Bit Rate : 323k
Sample Encoding: MPEG audio (layer I, II or III)
Comments :
Title=Triumphant Afterglow
Artist=Halo Of Miasma
Album=Triumphant Afterglow
Tracknumber=2
Year=2021
Genre=Black Metal



[ Hidden Text ]

Powered by Invision Power Board
© Invision Power Services