Printable Version of Topic

Click here to view this topic in its original format

Metal Area - Extreme Music Portal _ New Releases _ Dead Buture & Zozo & Disfigured Bodily Remaints - Dead Buture X Zozo X Disfigured Bodily Remaints [split] (2021)

Posted by: Necrokilldozer Apr 6 2021, 17:54:24

http://metalarea.org/images/audiocovers/2021_Apr/acov_tid349345.jpg

*Artist: Dead Buture & Zozo & Disfigured Bodily Remaints
*Album: Dead Buture X Zozo X Disfigured Bodily Remaints [split]
*Year: 2021
*Genre: Death Metal | Death Metal | Death Metal
*Country: United States | Unknown | Unknown
*Format: mp3@CBR320kbps
*Size: 63MB

Tracklist:
Dead Buture:
1. Nightmares from in Ed's Barn 09:32
2. Blood Trail Harvester 02:57
3. Cannibalistic Maniac 02:09
Disfigured Bodily Remaints:
4. Gorilla Gore 02:40
5. Tearing Flesh from Bone 02:30
6. Writng in Afterbirth 02:45
ZoZo:
7. BloodShot 04:09
******************************
Total playing time: 26:42

https://deadbuture.bandcamp.com/album/dead-buture-x-zozo-x-disfigured-bodily-remaints

Extended info
flac rip


Technical info

Input File: 06. Writng in Afterbirth - Disfigured Bodily Remaints.mp3
Channels : 2
Sample Rate : 44100
Precision : 16-bit
Duration : 00:02:45.76 = 7309972 samples = 12431.9 CDDA sectors
File Size : 6.63M
Bit Rate : 320k
Sample Encoding: MPEG audio (layer I, II or III)
Comments :
Title=Writng in Afterbirth
Artist=Disfigured Bodily Remaints
Album=Dead Buture x ZoZo x Disfigured Bodily Remaints (Split)
Tracknumber=6
Year=2021



[ Hidden Text ]

Powered by Invision Power Board
© Invision Power Services