Printable Version of Topic

Click here to view this topic in its original format

Metal Area - Extreme Music Portal _ New Releases _ 970Cen - Atornillado A Una Fresca [ep] (2017)

Posted by: Samaritianin Apr 6 2021, 21:34:18

https://metalarea.org/images/audiocovers/2021_Apr/acov_tid349355.jpg

*Artist: 970Cen
*Album: Atornillado A Una Fresca [ep]
*Year: 2017
*Genre: Thrash/Heavy Metal
*Country: Argentina
*Format: mp3@CBR320kbps
*Size: 54MB

Tracklist:
1. 2011 02:33
2. Dylan me rayó todo 03:49
3. Arrakenk 03:39
4. Abducción 03:39
5. Flores y tumbas 04:28
6. Inyeccion 02:37
7. No soy yo 02:43
******************************
Total playing time: 23:28

https://www.facebook.com/970cen-162265000934061
https://www.youtube.com/watch?v=SPyvMc5COgQ

Technical info

Input File: 05 - Flores Y Tumbas.mp3
Channels : 2
Sample Rate : 44100
Precision : 16-bit
Duration : 00:04:28.00 = 11818800 samples = 20100 CDDA sectors
File Size : 10.8M
Bit Rate : 323k
Sample Encoding: MPEG audio (layer I, II or III)
Comments :
Title=Flores Y Tumbas
Artist=970cen
Album=Atornillado a Una Fresca
Tracknumber=5
Year=2017-10-23
Genre=Metal
Discnumber=1



[ Hidden Text ]

Powered by Invision Power Board
© Invision Power Services