Printable Version of Topic

Click here to view this topic in its original format

Metal Area - Extreme Music Portal _ New Releases _ Gatling - De Vermis Mysteriis [demo] (2021)

Posted by: ITNOR Apr 6 2021, 23:31:35

https://metalarea.org/images/audiocovers/2021_Apr/acov_tid349357.jpg

*Artist: Gatling
*Album: De Vermis Mysteriis [demo]
*Year: 2021
*Genre: Death/Black/Thrash Metal
*Country: Peru
*Format: mp3@CBR320kbps
*Size: 32MB

Tracklist:
1. Kharisiri Attack
2. Coven Of The Worms
3. Sabbatical Devil Worship & Darkness and Evil (rehearsal version)
******************************
Total playing time: 14:00

https://nuclearhabitat.bandcamp.com/album/de-vermis-mysteriis

Technical info

Input File: Gatling - De Vermis Mysteriis - 01 Kharisiri Attack.mp3
Channels : 2
Sample Rate : 44100
Precision : 16-bit
Duration : 00:04:09.64 = 11009080 samples = 18722.9 CDDA sectors
File Size : 10.1M
Bit Rate : 324k
Sample Encoding: MPEG audio (layer I, II or III)
Comments :
Title=Kharisiri Attack
Artist=Gatling
Album=De Vermis Mysteriis
Year=2021



[ Hidden Text ]

Powered by Invision Power Board
© Invision Power Services