Printable Version of Topic

Click here to view this topic in its original format

Metal Area - Extreme Music Portal _ New Releases _ Wolf King - The Path Of Wrath (2021)

Posted by: vosmidesijatye Apr 7 2021, 20:10:18

http://metalarea.org/images/audiocovers/2021_Apr/acov_tid349408.jpg

*Artist: Wolf King
*Album: The Path Of Wrath
*Year: 2021
*Genre: Black Metal/Hardcore
*Country: United States
*Format: mp3@CBR320kbps
*Size: 121MB

Tracklist:
1. River Of Light 01:36
2. Messenger Of Death 04:20
3. Wandering Soul 05:49
4. Triumph Of The Slain 03:16
5. Sanctuary 04:06
6. The Oath 05:53
7. The Path Of Wrath 02:34
8. Incantation 06:01
9. Grief Portrait 05:21
10. Beholder 04:10
11. Holy Serpent 03:29
12. Eternal Hunger 06:11
******************************
Total playing time: 52:46

https://wolfking.bandcamp.com/

Technical info

Input File: 01 - River of Light.mp3
Channels : 2
Sample Rate : 44100
Precision : 16-bit
Duration : 00:01:36.00 = 4233600 samples = 7200 CDDA sectors
File Size : 3.92M
Bit Rate : 327k
Sample Encoding: MPEG audio (layer I, II or III)
Comments :
Title=River of Light
Artist=Wolf King
Album=The Path of Wrath
Tracknumber=1
Year=2021-05-03
Genre=GetMetal.club
Discnumber=1



[ Hidden Text ]

Powered by Invision Power Board
© Invision Power Services