Printable Version of Topic

Click here to view this topic in its original format

Metal Area - Extreme Music Portal _ New Releases _ Philosopher - Philosopher [ep] (2021)

Posted by: Samaritianin Apr 8 2021, 11:05:52

https://metalarea.org/images/audiocovers/2021_Apr/acov_tid349416.jpg

*Artist: Philosopher
*Album: Philosopher [ep]
*Year: 2021
*Genre: Old School Death Metal
*Country: United States
*Format: mp3@CBR320kbps
*Size: 42MB

Tracklist:
1. Sadist 05:25
2. Peace Never Lasts 04:00
3. Hail Of Arrows 04:54
4. Fractured Thoughts 04:08
******************************
Total playing time: 18:27

https://philosopherdeath.bandcamp.com/album/philosopher

Extended info
Anthony Guitars
Andrew Guitars, Bass, Drums (2014-present)
Levi Vocals (2014-present)


Technical info

Input File: 03 - Hail Of Arrows.mp3
Channels : 2
Sample Rate : 44100
Precision : 16-bit
Duration : 00:04:54.00 = 12965400 samples = 22050 CDDA sectors
File Size : 11.9M
Bit Rate : 323k
Sample Encoding: MPEG audio (layer I, II or III)
Comments :
Title=Hail Of Arrows
Artist=Philosopher
Album=Philosopher
Tracknumber=3
Year=2021-04-06
Genre=Metal
Discnumber=1



[ Hidden Text ]

Powered by Invision Power Board
© Invision Power Services