Printable Version of Topic

Click here to view this topic in its original format

Metal Area - Extreme Music Portal _ New Releases _ Primal Fear - I Will Be Gone [ep] (2021)

Posted by: Samaritianin Apr 8 2021, 11:40:09

https://metalarea.org/images/audiocovers/2021_Apr/acov_tid349418.jpg

*Artist: https://metalarea.org/forum/index.php?showtopic=38161
*Album: I Will Be Gone [ep]
*Year: 2021
*Genre: Heavy/Power Metal
*Country: Germany
*Format: mp3@CBR320kbps
*Size: 48MB

Tracklist:
1. I Will Be Gone 04:27
2. Vote for No Confidence 06:05
3. Rising Fear 01:39
4. Leave Me Alone 04:04
5. Second to None 04:12
******************************
Total playing time: 20:27

https://www.facebook.com/PrimalFearOfficial

Extended info
Mat Sinner Bass, Vocals (1997-present)
See also: Goddess Shiva, Jorn, Kiske / Somerville, Level 10, Silent Force, Sinner, Mat Sinner, Voodoo Circle, ex-Scheepers (live), ex-Cans
Tom Naumann Guitars (1997-2000, 2003-2007, 2015-present)
See also: Sinner, Mat Sinner, ex-Godiva (live)
Ralf Scheepers Vocals (1997-present)
See also: Scheepers, ex-F.B.I., ex-Blackwelder, ex-Gamma Ray, ex-Tyran' Pace
Magnus Karlsson Guitars (2008-present)
See also: Allen / Olzon, Heart Healer, Kiske / Somerville, Magnus Karlsson's Free Fall, The Codex, The Ferrymen, Planet Alliance, ex-Last Tribe, ex-Midnight Sun, Starbreaker, ex-Allen - Lande, ex-Bob Catley, ex-Scheepers (live), ex-Frontiers All Stars
Alex Beyrodt Guitars (2011-present)
See also: Jorn, Level 10, Silent Force, Mat Sinner, ex-Missa Mercuria, ex-The Sygnet, ex-Wild Axes, Voodoo Circle, ex-Sinner, ex-Princess
Michael Ehré Drums (2019-present)
See also: Basement Prophecy, Gamma Ray, Nitewalk, The Unity, Unisonic (live), ex-Love.Might.Kill, ex-Metalium, ex-Murder One, ex-Pryer, Uli Jon Roth (live), ex-Firewind, ex-Starchild, ex-Hansen & Friends (live), ex-Vinnie Moore (live), ex-Matt Gonzo Roehr, ex-Kee Marcello (live)


Technical info

Input File: 05 - Second to None.mp3
Channels : 2
Sample Rate : 44100
Precision : 16-bit
Duration : 00:04:12.00 = 11113200 samples = 18900 CDDA sectors
File Size : 10.3M
Bit Rate : 328k
Sample Encoding: MPEG audio (layer I, II or III)
Comments :
Title=Second to None
Artist=Primal Fear
Album=I Will Be Gone
Tracknumber=5
Year=2021-09-04
Discnumber=1



[ Hidden Text ]

Posted by: sadmannn Apr 8 2021, 20:39:51

EP забойный !..
Кроме трека с Тарьей

Posted by: Yarri Apr 9 2021, 19:58:55

ЦИТАТА(sadmannn @ Apr 8 2021, 22:39:51) *
Кроме трека с Тарьей

Отличный трек, и с, и без.

Posted by: DenisKov Apr 10 2021, 07:53:44

2й трек заслуживает внимания, остальное на пару раз послушать.

Posted by: Old Vyaine Apr 10 2021, 10:20:01

QUOTE(DenisKov @ 10th April 2021 - 09:53:44) *
на пару раз послушать


Это в целом о группе.

Posted by: Olrak Apr 10 2021, 22:56:04

ЦИТАТА(sadmannn @ Apr 8 2021, 22:39:51) *
EP забойный !..
Кроме трека с Тарьей

Да вроде поют, как и всегда - отлично, но что-то засняли их там страшно, сидят в темноте и как инопланетяне! normal_Homerdisgust3.png 1488.gif

Posted by: SveT Apr 10 2021, 23:03:05

Смейтесь,но я вспомнил Дио .Только за это плюс.
Но я не говорю ,что похоже.И не говорю про первую ,,песню,,.

Posted by: AHBAnep Apr 11 2021, 08:51:39

[ Hidden Text ]

Powered by Invision Power Board
© Invision Power Services