Printable Version of Topic

Click here to view this topic in its original format

Metal Area - Extreme Music Portal _ Archive _ Stone Horns - Rise Of Apophis (2021)

Posted by: vasilisk Apr 27 2021, 21:54:06

http://metalarea.org/images/audiocovers/2021_Apr/acov_tid350137.jpg

*Artist: Stone Horns
*Album: Rise Of Apophis
*Year: 2021
*Genre: Groove/Thrash Metal
*Country: France
*Format: mp3@CBR320kbps
*Size: 89MB

Tracklist:
01. The Unborn
02. Molten River
03. From Amourphous To Hydra
04. Shores Of Kismeth
05. Night And Day
06. Surging Out The Nile
07. Invocation
08. Tide Of Blood & Bones
09. Rise Of Apophis
******************************
Total playing time: 37:55

Technical info

Input File: 02. Molten River.mp3
Channels : 2
Sample Rate : 44100
Precision : 16-bit
Duration : 00:04:16.25 = 11300713 samples = 19218.9 CDDA sectors
File Size : 10.5M
Bit Rate : 328k
Sample Encoding: MPEG audio (layer I, II or III)
Comments :
Title=Molten River
Artist=Stone Horns
Album=Rise of Apophis
Tracknumber=02/09
Year=2021



[ Hidden Text ]

Powered by Invision Power Board
© Invision Power Services