Printable Version of Topic

Click here to view this topic in its original format

Metal Area - Extreme Music Portal _ New Releases _ Coffin Breath - The Tenebrous Mist [demo] (2021)

Posted by: Samaritianin May 3 2021, 16:53:01

https://metalarea.org/images/audiocovers/2021_May/acov_tid350409.jpg

*Artist: Coffin Breath
*Album: The Tenebrous Mist [demo]
*Year: 2021
*Genre: Death/Doom Metal
*Country: Unknown
*Format: mp3@CBR320kbps
*Size: 47MB

Tracklist:
1. Marching Into Lethargy 09:16
2. The Tenebrous Mist 11:25
******************************
Total playing time: 20:41

https://coffin-breath.bandcamp.com/album/the-tenebrous-mist

Technical info

Input File: Coffin Breath - The Tenebrous Mist - 01 Marching Into Lethargy.mp3
Channels : 2
Sample Rate : 44100
Precision : 16-bit
Duration : 00:09:16.75 = 24552763 samples = 41756.4 CDDA sectors
File Size : 22.4M
Bit Rate : 322k
Sample Encoding: MPEG audio (layer I, II or III)
Comments :
Title=Marching Into Lethargy
Artist=Coffin Breath
Album=The Tenebrous Mist
Tracknumber=1
Year=2021



[ Hidden Text ]

Powered by Invision Power Board
© Invision Power Services