Printable Version of Topic

Click here to view this topic in its original format

Metal Area - Extreme Music Portal _ New Releases _ Vietnam Rose - Darkness Side (2021)

Posted by: Samaritianin May 3 2021, 18:17:38

https://metalarea.org/images/audiocovers/2021_May/acov_tid350416.jpg

*Artist: Vietnam Rose
*Album: Darkness Side
*Year: 2021
*Genre: Technical/Melodic Death Metal
*Country: Indonesia
*Format: mp3@CBR320kbps
*Size: 141MB

Tracklist:
1. Prelude Gate 01:29
2. Rhymes for the Insults 05:26
3. The Heretic 04:14
4. The Hatred 04:56
5. Tiranny 04:54
6. Griffint 05:00
7. Quietus 05:58
8. Darkness Side 05:48
9. The Splinters of Sins and Hell 07:17
10. Inpersonate of the Wicked 06:38
11. Next Day Survivor 06:39
12. Closuresurrection 02:45
******************************
Total playing time: 1:01:04

https://eastbreathrecords.bandcamp.com/album/darkness-side
https://www.facebook.com/Vietnamrose.official/

Extended info


Technical info

Input File: 07 - Quietus.mp3
Channels : 2
Sample Rate : 44100
Precision : 16-bit
Duration : 00:05:58.08 = 15791460 samples = 26856.2 CDDA sectors
File Size : 14.5M
Bit Rate : 324k
Sample Encoding: MPEG audio (layer I, II or III)
Comments :
Title=Quietus
Artist=Vietnam Rose
Album=Darkness Side
Tracknumber=7
Year=2021
Genre=Technical, Melodic Death Metal
Discnumber=1/1



[ Hidden Text ]

Powered by Invision Power Board
© Invision Power Services