Printable Version of Topic

Click here to view this topic in its original format

Metal Area - Extreme Music Portal _ Archive _ Drastic Of Sorts - Drastic Of Sorts (2020)

Posted by: Shadowman May 12 2021, 17:23:09

http://metalarea.org/images/audiocovers/2021_May/acov_tid350785.jpg

*Artist: Drastic Of Sorts
*Album: Drastic Of Sorts
*Year: 2020
*Genre: Progressive Metal
*Country: United States
*Format: mp3@CBR320kbps
*Size: 118MB

Tracklist:
1. Preface
2. Secluded
3. Volition
4. Mind or Body
5. Persecution Complex (feat. Alex Baltes)
6. Doves
7. Suspension
8. Chronicle in Vain (feat. Gabe Pietrzak)
9. Ahold of Fate
10. Contour of Fear (feat. Eric Guenther)
11. Slumber of the Gods
12. Addendum
******************************
Total playing time: 50:42

https://www.youtube.com/watch?v=sVX2loDH85M

Extended info
Приятный для слуха и в меру навороченный прог-метал


Technical info

Input File: 05 - Percecution Complex (feat. Alex Baltes).mp3
Channels : 2
Sample Rate : 44100
Precision : 16-bit
Duration : 00:07:26.59 = 19694663 samples = 33494.3 CDDA sectors
File Size : 17.9M
Bit Rate : 321k
Sample Encoding: MPEG audio (layer I, II or III)
Comments :
Title=Percecution Complex (feat. Alex Baltes)
Artist=Drastic of Sorts/Alex Baltes
Album=Drastic of Sorts
Tracknumber=5
Year=2020
Discnumber=1/1



[ Hidden Text ]

Posted by: AHBAnep May 15 2021, 08:42:01

https://www.facebook.com/drastic.of.sorts/
Молодец парень.

Posted by: Shadowman May 15 2021, 12:25:07

ЦИТАТА(AHBAnep @ May 15 2021, 10:42:01) *
https://www.facebook.com/drastic.of.sorts/
Молодец парень.

Причем на ФБ у него очень мало подписчиков. Весьма недооцененный проект.

Powered by Invision Power Board
© Invision Power Services