Printable Version of Topic

Click here to view this topic in its original format

Metal Area - Extreme Music Portal _ Archive _ Crawling Manifest - Radical Absolution (2021)

Posted by: wolfskaiser May 13 2021, 11:08:09

http://metalarea.org/images/audiocovers/2021_May/acov_tid350801.jpg

*Artist: Crawling Manifest
*Album: Radical Absolution
*Year: 2021
*Genre: Melodic Heavy/Thrash Metal
*Country: United States
*Format: mp3@CBR320kbps
*Size: 96MB

Tracklist:
01. Land Of The Free 02:27
02. World War III 04:42
03. Nothing To Lose 06:11
04. Right To Refrain Silence 04:27
05. Radical Absolution 06:49
06. Blood Born 04:08
07. Revolution 04:08
08. Onslaught 05:00
******************************
Total playing time: 37:52

https://crawlingmanifest.bandcamp.com/

Technical info

Input File: 02. World War III.mp3
Channels : 2
Sample Rate : 44100
Precision : 16-bit
Duration : 00:04:42.09 = 12440125 samples = 21156.7 CDDA sectors
File Size : 11.4M
Bit Rate : 322k
Sample Encoding: MPEG audio (layer I, II or III)
Comments :
Title=World War III
Artist=Crawling Manifest
Album=Radical Absolution
Tracknumber=2
Year=2021-05-14
Genre=Alternative / Indie Rock / Metal
Discnumber=1



[ Hidden Text ]

Powered by Invision Power Board
© Invision Power Services