Printable Version of Topic

Click here to view this topic in its original format

Metal Area - Extreme Music Portal _ New Releases _ Abused Majesty - Inner Consciousness [ep] (2021)

Posted by: smysl Jun 10 2021, 12:24:31

https://metalarea.org/images/audiocovers/2021_Jun/acov_tid351890.jpg

*Artist: https://metalarea.org/forum/index.php?showtopic=59840
*Album: Inner Consciousness [ep]
*Year: 2021
*Genre: Symphonic Black Metal
*Country: Poland
*Format: mp3@CBR320kbps
*Size: 28MB

Tracklist:
1.Darkness Walks With Them 04:31
2.Inner Consciousness 05:28
******************************
Total playing time: 9:59

https://abusedmajesty.bandcamp.com/album/inner-consciousness

Technical info

Input File: 01 Darkness Walks With Them.mp3
Channels : 2
Sample Rate : 44100
Precision : 16-bit
Duration : 00:04:31.09 = 11955069 samples = 20331.7 CDDA sectors
File Size : 11.1M
Bit Rate : 326k
Sample Encoding: MPEG audio (layer I, II or III)
Comments :
Title=Darkness Walks With Them
Artist=Abused Majesty
Album=Inner Consciousness
Tracknumber=1
Year=2021
Genre=Black Metal



[ Hidden Text ]

Posted by: isvili Jun 11 2021, 15:57:29

Хорошая группа, жаль что мало альбомов выпускает, помню их альбом 2004 года, он был просто на ура.
13 лет уже от них полноформатника не было.

Powered by Invision Power Board
© Invision Power Services