Printable Version of Topic

Click here to view this topic in its original format

Metal Area - Extreme Music Portal _ New Releases _ Winter's Breath - Graveyard Symphonies (2021)

Posted by: wolfskaiser Jun 10 2021, 14:41:57

https://metalarea.org/images/audiocovers/2021_Jun/acov_tid351909.jpg

*Artist: Winter's Breath
*Album: Graveyard Symphonies
*Year: 2021
*Genre: Atmospheric Black Metal
*Country: Austria
*Format: mp3@CBR320kbps
*Size: 128MB

Tracklist:
01. The Beginning...
02. Desperate Soul
03. Path To Extinction
04. Last Breath
05. Afterlife (Lady In Black II)
06. Lessons Of The Past
07. Dead Man's Day
08. Graveyard Symphony
09. ...Of The End
******************************
Total playing time: 49:58

https://wintersbreath.bandcamp.com/album/graveyard-symphonies

Technical info

Input File: 02. Desperate Soul.mp3
Channels : 2
Sample Rate : 44100
Precision : 16-bit
Duration : 00:06:02.08 = 15967728 samples = 27156 CDDA sectors
File Size : 14.9M
Bit Rate : 330k
Sample Encoding: MPEG audio (layer I, II or III)
Comments :
Title=Desperate Soul
Artist=Winter's Breath
Album=Graveyard Symphonies
Tracknumber=02/09
Year=2021
Genre=Black Metal



[ Hidden Text ]

Powered by Invision Power Board
© Invision Power Services