Printable Version of Topic

Click here to view this topic in its original format

Metal Area - Extreme Music Portal _ Archive _ Black Spirit - El Sueño De La Razón Produce Monstruos (2021)

Posted by: Velmi Jun 12 2021, 07:29:01

http://metalarea.org/images/audiocovers/2021_Jun/acov_tid351975.jpg

*Artist: Black Spirit
*Album: El Sueño De La Razón Produce Monstruos
*Year: 2021
*Genre: Black Metal
*Country: Spain
*Format: mp3@CBR320kbps
*Size: 116MB

Tracklist:
01. El Sueño de la Razón Produce Monstruos 02:31
02. Ignorance and The Grotesque 05:13
03. Dream or a Nightmare 06:15
04. At the Edge of Conciousness 04:56
05. Disparate del miedo 01:50
06. Black Paintings 03:28
07. The Depths of Time 04:13
08. Disparate Funebre 02:29
09. The Fanatics of Oppresion 05:07
10. The Mystical Silence 04:43
11. There will Always be a yet Greater Horror 03:48
12. In the Vortex to Infinite Blackness 05:55
******************************
Total playing time: 50:28

Technical info

Input File: 02. Ignorance And The Grotesque.mp3
Channels : 2
Sample Rate : 44100
Precision : 16-bit
Duration : 00:05:29.09 = 14512649 samples = 24681.4 CDDA sectors
File Size : 13.2M
Bit Rate : 320k
Sample Encoding: MPEG audio (layer I, II or III)
Comments :
Title=Ignorance And The Grotesque
Artist=Black Spirit
Album=El Sueño de la Razón Produce Monstruos
Tracknumber=02/12
Year=2021
Genre=Black Metal
Discnumber=1/1



[ Hidden Text ]

Posted by: Абигор Jun 12 2021, 12:21:43

Отражение -
[ Hidden Text ]

Posted by: Sangreal Jun 12 2021, 13:12:44

Добротный стафф.

Posted by: murian Jun 14 2021, 15:09:19

good one

Posted by: ent404 Jun 20 2021, 11:07:49

хорошо, но ничего своего.

Posted by: Озабоченный Jul 16 2021, 09:40:04

FLAC

[ Hidden Text ]
[ Hidden Text ]
[ Hidden Text ]

Powered by Invision Power Board
© Invision Power Services